Город Мастеров Сказка скачать

Уважаемый гость, на данной странице Вам доступен материал по теме: Город Мастеров Сказка скачать. Скачивание возможно на компьютер и телефон через торрент, а также сервер загрузок по ссылке ниже. Рекомендуем также другие статьи из категории «Аудиокниги».

Город Мастеров Сказка скачать.rar
Закачек 1085
Средняя скорость 3492 Kb/s
Скачать

Скачать фильм «Город мастеров» через торрент бесплатно

2174 kbps avg, 0.313 bit/pixel
Аудио: 48 kHz, Dolby AC3 5.1, 448 kbps
Видео: Идентификатор : 0 Формат : MPEG-4 Visual Профиль формата : Advanced Simple@L5 Параметр BVOP формата : 1 Параметр QPel формата : Нет Параметр GMC формата : Без точки перехода Параметр матрицы формата : Выборочная Идентификатор кодека : XVID Идентификатор кодека/Подсказка : XviD Продолжительность : 1 ч. 19 м. Битрейт : 2174 Кбит/сек Ширина : 624 пикселя Высота : 464 пикселя Соотношение сторон : 4:3 Частота кадров : 23,976 кадра/сек Цветовое пространство : YUV Субдискретизация насыщенности : 4:2:0 Битовая глубина : 8 бит Тип развёртки : Прогрессивная Метод сжатия : С потерями Бит/(Пиксели*Кадры) : 0.313 Размер потока : 1,20 Гбайт (83%) Библиотека кодирования : XviD 65
Аудио: Идентификатор : 1 Формат : AC-3 Формат/Информация : Audio Coding 3 Расширение режима : CM (complete main) Идентификатор кодека : 2000 Продолжительность : 1 ч. 19 м. Вид битрейта : Постоянный Битрейт : 448 Кбит/сек Каналы : 6 каналов Расположение каналов : Front: L C R, Side: L R, LFE Частота : 48,0 КГц Битовая глубина : 16 бит Метод сжатия : С потерями Размер потока : 254 Мбайт (17%) Выравнивание : Разделение по промежуткам Продолжительность промежутка : 42 мс. (1,00 видеокадр) Время предзагрузки промежутка : 500 мс

1176 kbps avg, 0.169 bit/pixel
Аудио: 48 kHz, MP3 2.0, 128 kbps
Видео: Идентификатор : 0 Формат : MPEG-4 Visual Профиль формата : Advanced Simple@L5 Параметр BVOP формата : 1 Параметр QPel формата : Нет Параметр GMC формата : Без точки перехода Параметр матрицы формата : Выборочная Идентификатор кодека : XVID Идентификатор кодека/Подсказка : XviD Продолжительность : 1 ч. 19 м. Битрейт : 1176 Кбит/сек Ширина : 624 пикселя Высота : 464 пикселя Соотношение сторон : 4:3 Частота кадров : 23,976 кадра/сек Цветовое пространство : YUV Субдискретизация насыщенности : 4:2:0 Битовая глубина : 8 бит Тип развёртки : Прогрессивная Метод сжатия : С потерями Бит/(Пиксели*Кадры) : 0.169 Размер потока : 667 Мбайт (90%) Библиотека кодирования : XviD 65
Аудио: Идентификатор : 1 Формат : MPEG Audio Версия формата : Version 1 Профиль формата : Layer 3 Идентификатор кодека : 55 Идентификатор кодека/Подсказка : MP3 Продолжительность : 1 ч. 19 м. Вид битрейта : Постоянный Битрейт : 128 Кбит/сек Каналы : 2 канала Частота : 48,0 КГц Метод сжатия : С потерями Размер потока : 72,5 Мбайт (10%) Выравнивание : Соединение по промежуткам Продолжительность промежутка : 42 мс. (1,00 видеокадр) Время предзагрузки промежутка : 504 мс. Библиотека кодирования : L3.99r Настройки программы : -m s -V 4 -q 2 -lowpass 17 -b 128

Добавлено: 15 май 2014

2012 kbps avg, 0.191 bit/pixel
Аудио: 48 kHz, AC3 Dolby Digital, 3/2 (L,C,R,l,r) + LFE ch,

Год выпуска : 1965
Страна : СССР
Жанр : Исторический, Фэнтези, Приключения, Семейный
Продолжительность : 79 минут
Перевод : Русский (Оригинал) — лицензия

Описание : Фильм-сказка по мотивам пьесы Тамары Габбе. Свободный средневековый город с величественным замком, живописной рыночной площадью и уютными домами покоряют войска злобного рыцаря де Моликорна. Гнусный деспот рассылает повсюду шпионов, вербует доносчиков и собирается жениться на I-ой красавице — Веронике с изысканным видом Марианны Вертинской. Однако свободолюбивый горбун Караколь, которому напророчено избавление от горба и свадьба с Вероникой, собирает униженных жителей на бой против завоевателей.


Статьи по теме